Publicidad:

¡Bienvenid@!

Al registrarse con nosotros, podrá discutir, compartir y enviar mensajes privados a otros miembros de nuestra comunidad.

¡Regístrate ahora!

Dragon Ball Z - El Hombre Más Fuerte Del Mundo [(Latino / Japonés / Ingles / Castellano) 1080 ] [MG - MF +]

Registrado
13 Jul 2019
Mensajes
365
Reaction score
43
Puntos
28


El Doctor Willow fue un científico muy brillante en su época y fue considerado como el hombre más inteligente del mundo, sin embargo tras sufrir un accidente en su laboratorio su cuerpo quedó destruido pero su cerebro aun siguió funcionando y fue conservado por su asistente. Ahora con la ayuda de las esferas del dragón y de su inteligencia tratara de conquistar la tierra y para ello tratara de apoderarse del cuerpo del hombre más fuerte del mundo: Goku.




  • [*=center] Titulo original: Dragón Ball Z - Kono yo de ichiban tsuyoi yatsu
    [*=center] Año: 1990
    [*=center] Duración: 59 min
    [*=center] País: Japon
    [*=center] Director: Chad Bowers, Daisuke Nishio
    [*=center] Escritor: Takao Koyama (screenplay), Akira Toriyama (story)
    [*=center] Reparto: Peter Kelamis, Masako Nozawa, Saffron Henderson, Terry Klassen
    [*=center] Productora: Toei Animation
    [*=center] Género: Acción,Aventura,Animación,Oriental

Otros Datos:


  • [*=center] Nombre: Dragón Ball Z El hombre más fuerte de este mundo
    [*=center] Formato: MKV
    [*=center] Tamaño: 1.08 GB
    [*=center] Resolución: 1920X1080
    [*=center] Duración: 00:59:40
    [*=center] Idioma: Latino, Japones, Ingles, Castellano
    [*=center] Subtitulos: Español, Ingles
    [*=center] Servidor: Mega - Mediafire - Uploaded


Mediainf:

General
Complete name : G:\New folder\peliculas\DRAGON BALL Z EL HOMBRE MAS FUERTE DE ESTE MUNDO 1080P-Lat-Jap-Englis-Castellano\2. DRAGON BALL Z EL HOMBRE MAS FUERTE DE ESTE MUNDO 1080P.mkv
Format : Matroska
Format version : Version 2
File size : 1.10 GiB
Duration : 59mn 40s
Overall bit rate : 2 636 Kbps
Encoded date : UTC 2016-08-18 01:41:56
Writing application : mkvmerge v5.7.0 ('The Whirlwind') built on Jul 8 2012 20:08:51
Writing library : libebml v1.2.3 + libmatroska v1.3.0
Attachements : TCCEB.TTF / dango.TTF

Video
ID : 1
Format : AVC
Format/Info : Advanced Video Codec
Format profile : Main@L4.0
Format settings, CABAC : Yes
Format settings, ReFrames : 4 frames
Muxing mode : Header stripping
Codec ID : V_MPEG4/ISO/AVC
Duration : 59mn 40s
Nominal bit rate : 2 160 Kbps
Width : 1 920 pixels
Height : 1 080 pixels
Display aspect ratio : 16:9
Frame rate mode : Constant
Frame rate : 23.976 fps
Color space : YUV
Chroma subsampling : 4:2:0
Bit depth : 8 bits
Scan type : Progressive
Bits/(Pixel*Frame) : 0.043
Writing library : x264 core 112
Encoding settings : cabac=1 / ref=2 / deblock=1:0:0 / analyse=0x1:0x111 / me=hex / subme=6 / psy=1 / psy_rd=1.00:0.00 / mixed_ref=0 / me_range=16 / chroma_me=1 / trellis=0 / 8x8dct=0 / cqm=0 / deadzone=21,11 / fast_pskip=1 / chroma_qp_offset=-2 / threads=6 / sliced_threads=0 / nr=0 / decimate=1 / interlaced=0 / constrained_intra=0 / bframes=2 / b_pyramid=2 / b_adapt=1 / b_bias=0 / direct=1 / weightb=0 / open_gop=0 / weightp=2 / keyint=240 / keyint_min=23 / scenecut=40 / intra_refresh=0 / rc_lookahead=40 / rc=2pass / mbtree=1 / bitrate=2160 / ratetol=1.0 / qcomp=0.60 / qpmin=3 / qpmax=51 / qpstep=4 / cplxblur=20.0 / qblur=0.5 / ip_ratio=1.40 / aq=1:1.00
Language : English
Default : Yes
Forced : No
Color primaries : BT.709
Transfer characteristics : BT.709
Matrix coefficients : BT.709

Audio #1
ID : 2
Format : AC-3
Format/Info : Audio Coding 3
Mode extension : CM (complete main)
Format settings, Endianness : Big
Muxing mode : Header stripping
Codec ID : A_AC3
Duration : 59mn 40s
Bit rate mode : Constant
Bit rate : 192 Kbps
Channel(s) : 2 channels
Channel positions : Front: L R
Sampling rate : 48.0 KHz
Bit depth : 16 bits
Compression mode : Lossy
Stream size : 81.9 MiB (7%)
Title : Español Latino
Language : Latin
Default : Yes
Forced : No

Audio #2
ID : 3
Format : AAC
Format/Info : Advanced Audio Codec
Format profile : LC
Codec ID : A_AAC
Duration : 59mn 40s
Channel(s) : 1 channel
Channel positions : Front: C
Sampling rate : 48.0 KHz
Compression mode : Lossy
Title : Japones
Language : Japanese
Default : No
Forced : No

Audio #3
ID : 4
Format : AAC
Format/Info : Advanced Audio Codec
Format profile : LC
Codec ID : A_AAC
Duration : 59mn 40s
Channel(s) : 2 channels
Channel positions : Front: L R
Sampling rate : 48.0 KHz
Compression mode : Lossy
Title : FUNimation Original
Language : English
Default : No
Forced : No

Audio #4
ID : 5
Format : AC-3
Format/Info : Audio Coding 3
Mode extension : CM (complete main)
Format settings, Endianness : Big
Muxing mode : Header stripping
Codec ID : A_AC3
Duration : 59mn 40s
Bit rate mode : Constant
Bit rate : 192 Kbps
Channel(s) : 2 channels
Channel positions : Front: L R
Sampling rate : 48.0 KHz
Bit depth : 16 bits
Compression mode : Lossy
Stream size : 81.9 MiB (7%)
Title : Español de España
Language : Spanish
Default : No
Forced : No

Text #1
ID : 6
Format : ASS
Codec ID : S_TEXT/ASS
Codec ID/Info : Advanced Sub Station Alpha
Compression mode : Lossless
Title : Español
Language : Spanish
Default : Yes
Forced : No

Text #2
ID : 7
Format : UTF-8
Codec ID : S_TEXT/UTF8
Codec ID/Info : UTF-8 Plain Text
Title : English
Language : English
Default : No
Forced : No




 
Publicidad:
ADVERTENCIA: Ninguno de los archivos que se muestran aquí están alojados o transmitidos por este servidor. Los enlaces son proporcionados únicamente por los usuarios de este sitio. La moderación del sitio es también un servicio proporcionado por los usuarios del sitio. El administrador de este sitio (TuxDescargas) no se hace responsable de lo que publican sus usuarios, o de cualquier otra acción de sus usuarios. No puede usar este sitio para distribuir o descargar ningún material cuando no tenga los derechos legales para hacerlo. Es su responsabilidad adherirse a estos términos. Usted también acepta que el contenido que descargue aquí es solo para fines de prueba y no debe utilizarse para uso comercial o como producto final en un sitio en producción. El contenido es proporcionado por los usuarios del sitio y, por lo tanto, no nos hacemos responsables de ningún daño o pérdida de datos que pueda ocurrir.
Arriba